#TITLE:Ice Cream;
#SUBTITLE:Dead Master;
#ARTIST:Hyun A;
#TITLETRANSLIT:;
#SUBTITLETRANSLIT:;
#ARTISTTRANSLIT:;
#CREDIT:;
#BANNER:bn.jpg;
#BACKGROUND:bg.jpg;
#LYRICSPATH:;
#CDTITLE:cd.png;
#MUSIC:Ice Cream.ogg;
#OFFSET:-2.844;
#SAMPLESTART:52.767;
#SAMPLELENGTH:12.000;
#SELECTABLE:YES;
#BPMS:0.000=120.185;
#STOPS:;
#BGCHANGES:;
// cache tags:
#FIRSTBEAT:0.000;
#LASTBEAT:226.500;
#SONGFILENAME:Songs/Super Dancer Online/Ice Cream (Hyun A)/Ice Cream.sm;
#HASMUSIC:1;
#HASBANNER:1;
#MUSICLENGTH:118.000;
// end cache tags

//---------------dance-single - ----------------
#NOTES:
     dance-single:
     :
     Hard:
     1:
     0.661,0.576,0.263,0.136,0.962,498.000,31.000,16.000,0.000,1.000:
0010
0000
0010
0000
0100
0000
0010
0000
1000
0000
0000
0001
0000
0000
0010
0010
,
0000
1000
0000
0010
0010
0000
0100
0001
0000
0001
0000
1000
0010
0010
0000
0100
,
0000
0010
0010
0000
1000
0001
0001
0000
0000
0100
0010
0010
0000
1000
0010
0000
,
0100
0001
0001
0000
1000
0010
0000
0010
0000
0100
0001
0000
0000
0010
0000
0010
,
0000
0000
0100
0010
0000
0010
0000
1000
0001
0000
0001
0100
0000
0010
0000
1000
,
0000
0010
0010
0000
0100
0010
0010
0000
0100
0000
0001
0000
0000
0010
0010
0000
,
1000
0000
0010
0010
0000
0000
0100
0001
0000
0001
0000
1000
0000
0010
0000
0000
,
0000
0100
0000
0000
0100
0000
0000
0010
0010
0000
0001
0000
0001
0001
0000
0010
,
0000
1000
0010
0010
0000
0100
0010
0000
0010
0100
0010
0000
0000
1000
0001
0000
,
0000
0100
0010
0010
0000
0100
0001
0001
0000
0000
1000
0010
0010
0000
0110
0000
,
0100
0001
0001
0000
1000
0010
0000
0010
0000
0000
0101
0000
0000
0010
0000
0000
,
0000
0010
0000
0000
0000
0001
0001
0000
0000
0010
0010
0000
0100
0010
0000
1000
,
0010
0010
0000
0100
0000
0001
0001
0000
0100
0010
0000
0010
0100
0010
0000
1000
,
0010
0010
0100
0000
0010
0000
0010
0100
0001
0000
0001
0100
0000
0010
0010
1000
,
0000
0010
0010
0000
0100
0001
0001
0000
0000
0000
0010
0000
0000
0001
0000
0000
,
0000
0010
0000
0000
0000
0010
0100
0010
0000
0000
2000
0000
0000
0000
0000
0000
,
0000
3000
0010
0010
0000
0100
0010
0010
0100
0002
0000
0000
0000
0000
0013
0000
,
0010
0000
0100
0010
0000
0010
1000
0010
0000
0010
0000
0110
0000
0010
0000
0100
,
0001
0001
0000
1000
0010
0000
0010
0000
0100
0010
0100
0000
0001
0001
0000
0000
,
0020
0000
0000
0030
0000
0100
1000
0100
0010
0000
0002
0000
0000
0000
0000
0000
,
0000
0003
0010
0000
0000
0010
0000
2000
0100
3010
0010
0000
0000
0110
0000
0010
,
0100
0000
0002
0000
0000
0003
0000
0010
0010
0100
1000
0100
0010
0010
0000
0100
,
0010
0010
0100
0000
1000
0100
0010
0000
0010
0100
0000
0010
0100
0000
0010
0000
,
0010
0000
0001
0010
0000
1000
0010
0000
0010
0000
0100
0000
0010
0010
0000
0010
,
0000
0100
0000
0010
0000
1000
0010
0000
0000
0010
0100
0000
0001
0000
0100
0000
,
0010
0000
1000
0010
0000
0100
0010
0000
0100
0000
0010
0100
0010
0000
0010
0000
,
1000
0001
0000
0100
0010
0000
0010
0000
0100
0000
0010
0100
0001
0000
0001
1000
,
0010
0000
0100
0010
0000
0000
0110
0000
0010
1000
0010
0000
0100
0010
0110
0000
,
0010
0000
0100
0000
0001
0000
1000
0001
0001
0000
1000
0010
0000
0010
0100
0010
,
0000
0100
0010
0100
0010
0000
0001
1000
0000
0010
0000
0010
0100
0001
0000
0001
,
0000
1000
0010
0000
0010
0000
0001
0001
0000
0000
0010
0000
0010
0100
1000
0100
,
0010
0010
0000
0100
0000
0001
0001
0000
0000
0010
0000
0000
0101
0000
0110
0000
,
0001
0000
0010
0101
0000
0000
0010
0000
0010
0100
0000
0010
0010
0000
1001
0001
,
0000
0100
0010
0010
0100
0010
0000
0200
0000
0000
0310
0000
0010
0000
0011
0000
,
1000
0100
0010
0010
0000
0110
0000
0001
0010
0000
0100
0010
0100
0000
2000
0100
,
0000
3010
0010
0000
0100
0000
0020
0000
0000
0000
0030
0000
0010
0000
0110
0000
,
1100
0010
0000
0001
0000
0001
0020
0000
0000
0000
0000
0030
0100
1000
0100
0010
,
0010
0010
0000
0011
0100
1000
0100
0000
0020
0000
0000
0030
0000
0000
0000
0001
,
0000
0000
0001
0000
0000
0000
0001
0000
0000
0000
0010
0000
0000
0110
0000
0010
,
0000
1000
0010
0000
0010
0100
0001
0000
0000
0000
0010
0000
0010
0100
1000
0000
,
0100
0010
0010
0000
0001
0000
0001
0000
0010
0000
0010
0000
0100
0000
0010
0000
,
0010
0000
0000
0001
0000
0010
0000
0001
0010
0000
0200
0000
0000
0000
0300
0010
,
0010
0000
1000
0000
0010
0010
0000
0000
0100
0000
0001
0000
0010
0000
0010
0000
,
0100
0001
0000
0010
0000
0000
0200
0000
0000
0300
0010
0010
0000
1000
0001
0000
,
0001
0000
0100
0010
0010
0100
0000
0010
0000
1000
0000
0001
0000
0100
0000
0000
,
0000
0010
0000
0100
0001
0000
0100
0000
0001
0000
1000
0010
0000
0010
0000
0100
,
0000
0001
0000
0000
0010
0100
0000
0010
0100
0010
1000
0000
0010
0100
0010
0000
,
0100
0001
1000
0000
0010
0010
0000
0000
0000
0000
0000
0010
0010
0000
0100
1000
,
0001
0000
0001
0000
0100
0010
0000
0010
0000
0000
0100
0001
0000
0010
0110
0000
,
0010
0100
0010
0000
1000
0000
0110
0000
0010
0000
0000
0100
0010
0000
0010
0001
,
0010
0000
0100
1000
0100
0010
0000
0010
0000
0000
0000
0101
0000
0000
1010
0000
,
0000
0000
0101
0000
0000
0000
0101
0000
0000
0000
0010
0000
0010
1000
0000
0110
,
0010
0000
0100
0001
0000
0001
0020
0000
0000
0000
0030
0100
1000
0100
0010
0010
,
0000
0001
0000
0010
0100
0000
0010
0010
2000
0000
0000
0000
3010
0000
0010
0100
,
0010
0011
1000
0110
0000
0101
0000
1010
,
0000
0000
0101
0000
0000
0000
1010
0000
0000
0000
0000
0111
0000
0000
0010
0000
,
0001
0010
0000
0010
0000
0000
0120
0000
0000
0000
0030
0000
0000
0000
0000
0000
;
